中二病也要谈恋爱! -Take On Me-

字幕组:生肉/不明字幕

发布日期:2018/09/06 19:56

文件大小:5.0GB

下载种子 磁力链接

[xyx98]剧场版 中二病也要谈恋爱! -Take On Me-/Chuunibyou demo Koi ga Shitai! Take On Me/中二病でも恋がしたい! -Take On Me-[BDrip][1920x1036][hevc-yuv420p10 flac] [5.0GB]


 

“十八岁。高中最后一年。明明如此,六花却……仍然是个中二病”
升入大学的考试近在眼前,高中三年级到来前的春假。
富㭴勇太和小鸟游六花的共同生活依然一成不变。
但他们的上位契约似乎仍未缔结……。
这样的某一天,六花的姐姐十花宣言要将六花带去意大利。
她说自己的工作已经安定下来,因此要携家迁居。
勇太虽然感到焦躁,但十花却提出了
不能就这么放着考大学也很危险的六花不管,这样的合理意见。
这样下去的话,两人就要被迫分开。
担心他们的丹生谷等一如往常的成员,对勇太提出了“私奔”的提案。
就这样,以日本全国为舞台,两人的逃亡剧就此展开。


mediainfo:

General
Unique ID                   : 26354383482589967137790405196026378851 (0x13D3AB6CF84A29EDA066303909AA7A63)
Complete name               : E:\动漫\中二病也要谈恋爱! -Take On Me-\中二病也要谈恋爱! -Take On Me-.mkv
Format                      : Matroska
Format version              : Version 4 / Version 2
File size                   : 1.98 GiB
Duration                    : 1 h 33 min
Overall bit rate mode       : Variable
Overall bit rate            : 3 018 kb/s
Movie name                  : 映画 中二病でも恋がしたい! -Take On Me-
Encoded date                : UTC 2018-08-22 05:37:06
Writing application         : mkvmerge v22.0.0 ('At The End Of The World') 64-bit
Writing library             : libebml v1.3.5 + libmatroska v1.4.8

Video
ID                          : 1
Format                      : HEVC
Format/Info                 : High Efficiency Video Coding
Codec ID                    : V_MPEGH/ISO/HEVC
Duration                    : 1 h 33 min
Bit rate                    : 1 524 kb/s
Width                       : 1 920 pixels
Height                      : 1 036 pixels
Display aspect ratio        : 1.85:1
Frame rate mode             : Constant
Frame rate                  : 23.976 (24000/1001) FPS
Color space                 : YUV
Chroma subsampling          : 4:2:0
Bit depth                   : 10 bits
Bits/(Pixel*Frame)          : 0.032
Stream size                 : 1 021 MiB (51%)
Language                    : Japanese
Default                     : Yes
Forced                      : No

Audio
ID                          : 2
Format                      : FLAC
Format/Info                 : Free Lossless Audio Codec
Codec ID                    : A_FLAC
Duration                    : 1 h 33 min
Bit rate mode               : Variable
Bit rate                    : 1 383 kb/s
Channel(s)                  : 2 channels
Channel layout              : L R
Sampling rate               : 48.0 kHz
Frame rate                  : 11.719 FPS (4096 SPF)
Bit depth                   : 24 bits
Compression mode            : Lossless
Stream size                 : 927 MiB (46%)
Writing library             : CUETools FLACCL 2.1.6
Language                    : Japanese
Default                     : Yes
Forced                      : No

Text
ID                          : 3
Format                      : PGS
Muxing mode                 : zlib
Codec ID                    : S_HDMV/PGS
Codec ID/Info               : Picture based subtitle format used on BDs/HD-DVDs
Duration                    : 1 h 32 min
Bit rate                    : 275 kb/s
Count of elements           : 8830
Stream size                 : 183 MiB (9%)
Language                    : Japanese
Default                     : No
Forced                      : No

Menu
00:00:00.000                : :chapter01
00:02:56.843                : :chapter02
00:04:41.531                : :chapter03
00:16:04.338                : :chapter04
00:30:54.102                : :chapter05
00:37:30.081                : :chapter06
00:48:39.499                : :chapter07
01:07:37.219                : :chapter08
01:24:17.552                : :chapter09
01:27:19.234                : :chapter10

Top