烟花

字幕组:生肉/不明字幕

发布日期:2018/04/20 09:55

文件大小:4.0GB

下载种子 磁力链接

[烟花][打ち上げ花火、下から见るか?横から见るか?][Fireworks][BDRip 1920x1080 X265 YUV444 12bit OPUS 5.1]外挂简体 [4.0GB]


使用x265从原版bd直接压制,由于改作品大动态画面不是太多,所以视频体积可以压制的比较小,音频采用目前最好的OPUS格式(比AAC优秀很多),保留完整的5.1声道,相比原始音轨的基本没什么可感知的差异。

此外,文件中单独提供了原始的DTSMA音轨,提供给有完美主义嗜好的用户自行合并使用。

包含的外挂字幕采用了雪飘工作室公开发布的字幕,来源:https://subbers.org/subtitles/Hanabi/

 

 

Video

ID                          : 1

Format                      : HEVC

Format/Info                 : High Efficiency Video Coding

Format profile              : @[email protected]

Codec ID                    : V_MPEGH/ISO/HEVC

Duration                    : 1 h 30 min

Bit rate                    : 2 492 kb/s

Width                       : 1 920 pixels

Height                      : 1 080 pixels

Display aspect ratio        : 16:9

Frame rate mode             : Constant

Frame rate                  : 23.976 (24000/1001) FPS

Chroma subsampling          : 4:4:4

Bit depth                   : 12 bits

Bits/(Pixel*Frame)          : 0.050

Stream size                 : 1.57 GiB (83%)

Writing library             : x265 2.7+340-aa9102400f24:[Windows][MSVC 1914][64 bit] 12bit

Encoding settings           : cpuid=1111039 / frame-threads=2 / numa-pools=4 / wpp / no-pmode / no-pme / no-psnr / no-ssim / log-level=2 / input-csp=3 / input-res=1920x1080 / interlace=0 / total-frames=129576 / level-idc=0 / high-tier=1 / uhd-bd=0 / ref=4 / no-allow-non-conformance / no-repeat-headers / annexb / no-aud / no-hrd / info / hash=0 / no-temporal-layers / open-gop / min-keyint=23 / keyint=250 / gop-lookahead=0 / bframes=4 / b-adapt=2 / b-pyramid / bframe-bias=0 / rc-lookahead=25 / lookahead-slices=4 / scenecut=40 / radl=0 / no-intra-refresh / ctu=64 / min-cu-size=8 / rect / no-amp / max-tu-size=32 / tu-inter-depth=1 / tu-intra-depth=1 / limit-tu=0 / rdoq-level=2 / dynamic-rd=0.00 / no-ssim-rd / signhide / no-tskip / nr-intra=0 / nr-inter=0 / no-constrained-intra / no-strong-intra-smoothing / max-merge=3 / limit-refs=3 / limit-modes / me=3 / subme=3 / merange=57 / temporal-mvp / weightp / no-weightb / no-analyze-src-pics / deblock=-1:-1 / no-sao / no-sao-non-deblock / rd=4 / no-early-skip / rskip / no-fast-intra / no-tskip-fast / no-cu-lossless / no-b-intra / no-splitrd-skip / rdpenalty=0 / psy-rd=2.00 / psy-rdoq=1.50 / no-rd-refine / no-lossless / cbqpoffs=6 / crqpoffs=6 / rc=crf / crf=18.0 / qcomp=0.60 / qpstep=4 / stats-write=0 / stats-read=0 / ipratio=1.40 / pbratio=1.30 / aq-mode=1 / aq-strength=1.00 / cutree / zone-count=0 / no-strict-cbr / qg-size=32 / no-rc-grain / qpmax=69 / qpmin=0 / no-const-vbv / sar=0 / overscan=0 / videoformat=5 / range=0 / colorprim=2 / transfer=2 / colormatrix=2 / chromaloc=0 / display-window=0 / max-cll=0,0 / min-luma=0 / max-luma=4095 / log2-max-poc-lsb=8 / vui-timing-info / vui-hrd-info / slices=1 / no-opt-qp-pps / no-opt-ref-list-length-pps / no-multi-pass-opt-rps / scenecut-bias=0.05 / no-opt-cu-delta-qp / no-aq-motion / no-hdr / no-hdr-opt / no-dhdr10-opt / no-idr-recovery-sei / analysis-reuse-level=5 / scale-factor=0 / refine-intra=0 / refine-inter=0 / refine-mv=0 / no-limit-sao / ctu-info=0 / no-lowpass-dct / refine-mv-type=0 / copy-pic=1 / max-ausize-factor=1.0 / no-dynamic-refine / no-single-sei

Default                     : Yes

Forced                      : No

 

Audio

ID                          : 2

Format                      : Opus

Codec ID                    : A_OPUS

Duration                    : 1 h 30 min

Bit rate                    : 512 kb/s

Channel(s)                  : 6 channels

Channel positions           : Front: L C R, Rear: L R, LFE

Sampling rate               : 48.0 kHz

Frame rate                  : 50.000 FPS (960 SPF)

Compression mode            : Lossy

Stream size                 : 330 MiB (17%)

Language                    : Japanese

Default                     : Yes

Forced                      : No

 

Top