你的名字。

字幕组:君の名は。FANS字幕组

发布日期:2017/07/25 23:50

文件大小:730MB

下载种子 磁力链接

RADWIMPS スパークル [original ver.] -Your name. Music Video edition- / 君の名は。Sparkle MV / 你的名字。火花 MV [BDRip AVC 1920x1080p DTS-HDMA AAC][MKV][JPN&BIG5][特效字幕][剧场版] [730MB]


 

君の名は。Blu-ray 初回限定版映像特典  Sparkle [original ver.] -Your name. Music Video edition-

 

本字幕由君の名は。Fans 字幕組製作

僅供學習與交流之用,請勿用於商業用途,如喜歡本作品請支持正版

同時發布於b站的在線視頻版本(低碼率版)  www.bilibili.com/video/av7822030/

 

 

Complete name               : S:\Sparkle [original ver.] -Your name. Music Video edition- [BDRip AVC 1920x1080p DTS-HDMA AAC].mkv

Format                      : Matroska

Format version              : Version 2

File size                   : 730 MiB

Duration                    : 6 min 52 s

Overall bit rate            : 14.9 Mb/s

Encoded date                : UTC 2017-07-25 14:56:46

Writing application         : mkvmerge v10.0.0 ('To Drown In You') 64bit

Writing library             : libebml v1.3.4 + libmatroska v1.4.5

 

Video

ID                          : 1

Format                      : AVC

Format/Info                 : Advanced Video Codec

Format profile              : [email protected]

Format settings, CABAC      : Yes

Format settings, ReFrames   : 4 frames

Codec ID                    : V_MPEG4/ISO/AVC

Duration                    : 6 min 52 s

Bit rate                    : 13.3 Mb/s

Width                       : 1 920 pixels

Height                      : 1 080 pixels

Display aspect ratio        : 16:9

Frame rate mode             : Constant

Frame rate                  : 23.976 (24000/1001) FPS

Color space                 : YUV

Chroma subsampling          : 4:2:0

Bit depth                   : 8 bits

Scan type                   : Progressive

Bits/(Pixel*Frame)          : 0.268

Stream size                 : 654 MiB (90%)

Writing library             : x264 core 148 r2744 b97ae06

Encoding settings           : cabac=1 / ref=4 / deblock=1:0:0 / analyse=0x3:0x133 / me=tesa / subme=11 / psy=1 / psy_rd=0.95:0.00 / mixed_ref=1 / me_range=24 / chroma_me=1 / trellis=2 / 8x8dct=1 / cqm=0 / deadzone=21,11 / fast_pskip=0 / chroma_qp_offset=-2 / threads=12 / lookahead_threads=2 / sliced_threads=0 / nr=0 / decimate=0 / interlaced=0 / bluray_compat=0 / constrained_intra=0 / bframes=9 / b_pyramid=2 / b_adapt=2 / b_bias=0 / direct=3 / weightb=1 / open_gop=0 / weightp=2 / keyint=240 / keyint_min=23 / scenecut=40 / intra_refresh=0 / rc=crf / mbtree=0 / crf=15.0 / qcomp=0.70 / qpmin=0 / qpmax=41 / qpstep=4 / ip_ratio=1.40 / pb_ratio=1.30 / aq=1:0.85

Default                     : Yes

Forced                      : No

Color range                 : Limited

Matrix coefficients         : BT.709

 

Audio #1

ID                          : 2

Format                      : DTS

Format/Info                 : Digital Theater Systems

Format profile              : MA / Core

Mode                        : 16

Format settings, Endianness : Big

Codec ID                    : A_DTS

Duration                    : 6 min 52 s

Bit rate mode               : Variable / Constant

Bit rate                    : 1 118 kb/s / 768 kb/s

Channel(s)                  : 2 channels

Channel positions           : Front: L R

Sampling rate               : 48.0 kHz

Frame rate                  : 93.750 FPS (512 spf)

Bit depth                   : 16 bits

Compression mode            : Lossless / Lossy

Stream size                 : 54.9 MiB (8%)

Language                    : Japanese

Default                     : Yes

Forced                      : No

 

Audio #2

ID                          : 3

Format                      : AAC

Format/Info                 : Advanced Audio Codec

Format profile              : LC

Codec ID                    : A_AAC

Duration                    : 6 min 52 s

Bit rate                    : 419 kb/s

Channel(s)                  : 2 channels

Channel positions           : Front: L R

Sampling rate               : 48.0 kHz

Frame rate                  : 46.875 FPS (1024 spf)

Compression mode            : Lossy

Delay relative to video     : 9 ms

Stream size                 : 20.6 MiB (3%)

Language                    : Japanese

Default                     : No

Forced                      : No

 
 
去年發的DVDRip版本在這
share.dmhy.org/topics/view/450220_original_ver_-Your_name_Music_Video_edition-_Sparkle_MV_DVDRip_x264_NNEDI3_720p_AAC_JPN_BIG5.html

 

Top