Rewrite 第二季

字幕组:生肉/不明字幕

发布日期:2017/04/17 10:34

文件大小:7.2GB

下载种子 磁力链接

[Anime Rustiche] Rewrite 01-24 - Sub Ita.日语.内挂意大利文字幕 [7.2GB]


声优: 森田成一 、斋藤千和 、筱宫沙弥 、喜多村英梨 、铃木惠子 、朝树里沙 、花泽香菜 、小西克幸 、柳田淳一 、田中凉子 、渡边佳美 、东地宏树
简介:绿化都市风祭。 在这个文明和绿色共存的理想都市里居住着的天王寺瑚太朗和神戸小鳥、吉野晴彦等朋友们过着平凡的每一天。 就在这平静的风祭市里、每年一次的喧嚣时期到来了。 这就是将整个都市气氛烘托热烈的收获祭。 宛如迎接巨大的文化祭一般、瑚太朗开始了捕捉新闻线索的打工。 风祭的未确认生物情报、原本只是超自然现象一般的流言,结果却逐渐被染上了一层真实的色彩。 同时期、瑚太朗的身边也开始逐渐开始出现各种无法解释的现象。 瑚太朗请求神秘研究会的部長千里朱音进行调查协助、而他的朋友们也被卷入了这场调查行动之中。 这对瑚太朗来说、其实只是为了满足自己小小的冒险欲而已。 和充满精力的伙伴们一起度过的话、那真是太好了。 瑚太朗还没有注意到。那和谁都不曾知晓的“真实”的探求之路紧紧联系在一起。 ———能改写过来吗、她的命运。

 

General
Unique ID                      : 236102679200186031777667722155887081910 (0xB19FB8D3D2CCDE3481C3D1485432B9B6)
Complete name                  : F:\[Anime Rustiche] Rewrite 01-24 - Sub Ita\[Anime Rustiche] Rewrite - 01v2 Sub Ita.mkv
Format                         : Matroska
Format version                 : Version 4 / Version 2
File size                      : 550 MiB
Duration                       : 47mn 59s
Overall bit rate               : 1 602 Kbps
Encoded date                   : UTC 2016-10-09 11:11:32
Writing application            : mkvmerge v8.3.0 ('Over the Horizon') 32bit
Writing library                : libebml v1.3.1 + libmatroska v1.4.2
Attachments                    : KozMinProStrippedV3-Heavy_0.otf / KozukaMinchoProStrp-M.otf / LATO-REG_0.TTF / LEHN026.ttf / posthuman.ttf / verdana_1.ttf / AlegreyaSubSans-Bold.otf / AlegreyaSubSans-BoldItalic.otf / animeace.ttf / EraserDust.ttf / FOTManyoGyoshoStdStrp-E.otf / Hannah.ttf / IwaOMinPro-Bd-Fate.ttf

Video
ID                             : 1
Format                         : AVC
Format/Info                    : Advanced Video Codec
Format profile                 : High [email protected]
Format settings, CABAC         : Yes
Format settings, ReFrames      : 16 frames
Codec ID                       : V_MPEG4/ISO/AVC
Duration                       : 47mn 59s
Bit rate                       : 1 341 Kbps
Width                          : 1 280 pixels
Height                         : 720 pixels
Display aspect ratio           : 16:9
Frame rate mode                : Constant
Frame rate                     : 23.976 (24000/1001) fps
Color space                    : YUV
Chroma subsampling             : 4:2:0
Bit depth                      : 10 bits
Scan type                      : Progressive
Bits/(Pixel*Frame)             : 0.061
Stream size                    : 460 MiB (84%)
Writing library                : x264 core 144 r2525kMod 40bb568
Encoding settings              : cabac=1 / ref=16 / deblock=1:0:0 / analyse=0x3:0x133 / me=umh / subme=10 / psy=1 / fade_compensate=0.80 / psy_rd=0.80:0.00 / mixed_ref=1 / me_range=24 / chroma_me=1 / trellis=2 / 8x8dct=1 / cqm=0 / deadzone=21,11 / fast_pskip=1 / chroma_qp_offset=-2 / threads=12 / lookahead_threads=3 / sliced_threads=0 / nr=0 / decimate=1 / interlaced=0 / bluray_compat=0 / constrained_intra=0 / fgo=0 / bframes=16 / b_pyramid=2 / b_adapt=2 / b_bias=0 / direct=3 / weightb=1 / open_gop=0 / weightp=2 / keyint=250 / keyint_min=23 / scenecut=40 / intra_refresh=0 / rc_lookahead=60 / rc=crf / mbtree=1 / crf=16.0000 / qcomp=0.68 / qpmin=0 / qpmax=81 / qpstep=4 / ip_ratio=1.40 / aq=3:0.80
Language                       : Japanese
Default                        : Yes
Forced                         : No
Color range                    : Limited
Matrix coefficients            : BT.709

Audio
ID                             : 2
Format                         : AAC
Format/Info                    : Advanced Audio Codec
Format profile                 : LC
Codec ID                       : A_AAC
Duration                       : 47mn 59s
Bit rate                       : 252 Kbps
Channel(s)                     : 2 channels
Channel positions              : Front: L R
Sampling rate                  : 48.0 KHz
Frame rate                     : 46.875 fps (1024 spf)
Compression mode               : Lossy
Stream size                    : 86.6 MiB (16%)
Language                       : Japanese
Default                        : Yes
Forced                         : No

Text
ID                             : 3
Format                         : ASS
Codec ID                       : S_TEXT/ASS
Codec ID/Info                  : Advanced Sub Station Alpha
Duration                       : 46mn 22s
Bit rate                       : 437 bps
Count of elements              : 1362
Compression mode               : Lossless
Stream size                    : 149 KiB (0%)
Language                       : Italian
Default                        : Yes
Forced                         : No

Menu
00:00:00.000                   : :Intro
00:01:24.918                   : :Parte A
00:15:40.857                   : :Parte B
00:25:10.801                   : :Parte C
00:30:58.774                   : :Parte D
00:35:29.711                   : :Parte E
00:46:28.411                   : :Ending

 

 

Top