天气之子

字幕组:AI-Raws

发布日期:2020/06/06 20:16

文件大小:22.0GB

下载种子 磁力链接

[AI-Raws] 天气之子 天気の子 Weathering with You 2160p SDR UHDRip MKV [22.0GB]


 Buy it if you like this anime

BUT F**K QTEC OH YEAH

01.md.png
02.md.png
03.md.png
04.md.png
05.md.png
06.md.png
07.md.png
08.md.png

General
Unique ID : 276541208546408405721892139657122175854 (0xD00BE641AD64AD50E3C24AA3A4925B6E)
Complete name : K:\lolicon secret base[AI-Raws] 天気の子 (UHD HEVC 3840x2160 SDR yuv420p10le DTS-HD/FLAC 字幕).mkv
Format : Matroska
Format version : Version 4 / Version 2
File size : 22.0 GiB
Duration : 1 h 52 min
Overall bit rate mode : Variable
Overall bit rate : 28.1 Mb/s
Encoded date : UTC 2020-06-06 11:56:49
Writing application : mkvmerge v33.1.0 (‘Primrose’) 64-bit
Writing library : libebml v1.3.7 + libmatroska v1.5.0

Video
ID : 1
Format : HEVC
Format/Info : High Efficiency Video Coding
Format profile : Main [email protected]@High
Codec ID : V_MPEGH/ISO/HEVC
Duration : 1 h 52 min
Bit rate : 23.2 Mb/s
Width : 3 840 pixels
Height : 2 160 pixels
Display aspect ratio : 16:9
Frame rate mode : Constant
Frame rate : 23.976 (24000/1001) FPS
Color space : YUV
Chroma subsampling : 4:2:0
Bit depth : 10 bits
Bits/(Pixel*Frame) : 0.116
Stream size : 18.2 GiB (83%)
Writing library : x265 2.927d8424c799d:[Windows][MSVC 1900][64 bit] 10bit
Default : Yes
Forced : No
Color range : Limited
Color primaries : BT.709

Audio #1
ID : 2
Format : DTS
Format/Info : Digital Theater Systems
Format profile : MA / Core
Mode : 16
Format settings, Endianness : Big
Codec ID : A_DTS
Duration : 1 h 52 min
Bit rate mode : Variable / Constant
Bit rate : 3 557 kb/s / 1 509 kb/s
Channel(s) : 6 channels
Channel positions : Front: L C R, Side: L R, LFE
Sampling rate : 48.0 kHz
Frame rate : 93.750 FPS (512 SPF)
Bit depth : 24 bits
Compression mode : Lossless / Lossy
Stream size : 2.79 GiB (13%)
Title : 5.1ch
Default : Yes
Forced : No

Audio #2
ID : 3
Format : FLAC
Format/Info : Free Lossless Audio Codec
Codec ID : A_FLAC
Duration : 1 h 52 min
Bit rate mode : Variable
Bit rate : 1 292 kb/s
Channel(s) : 2 channels
Channel positions : Front: L R
Sampling rate : 48.0 kHz
Frame rate : 11.719 FPS (4096 SPF)
Bit depth : 24 bits
Stream size : 1.01 GiB (5%)
Title : 2ch
Writing library : libFLAC 1.2.1 (UTC 2007-09-17)
Default : No
Forced : No

Text #1
ID : 4
Format : PGS
Muxing mode : zlib
Codec ID : S_HDMV/PGS
Codec ID/Info : Picture based subtitle format used on BDs/HD-DVDs
Duration : 1 h 51 min
Bit rate : 42.8 kb/s
Count of elements : 3506
Stream size : 34.1 MiB (0%)
Language : Japanese
Default : Yes
Forced : No

Text #2
ID : 5
Format : PGS
Muxing mode : zlib
Codec ID : S_HDMV/PGS
Codec ID/Info : Picture based subtitle format used on BDs/HD-DVDs
Duration : 1 h 51 min
Bit rate : 33.4 kb/s
Count of elements : 3134
Stream size : 26.5 MiB (0%)
Language : English
Default : No
Forced : No

Text #3
ID : 6
Format : PGS
Muxing mode : zlib
Codec ID : S_HDMV/PGS
Codec ID/Info : Picture based subtitle format used on BDs/HD-DVDs
Duration : 1 h 50 min
Bit rate : 30.6 kb/s
Count of elements : 3462
Stream size : 24.3 MiB (0%)
Language : Chinese
Default : No
Forced : No

Menu
00:00:00.000 : ja:空の世界
00:03:52.315 : ja:島を出た少年
00:07:13.433 : ja:東京
00:11:51.210 : ja:K&Aプランニング
00:17:27.046 : ja:新しい毎日
00:19:46.352 : ja:救出
00:22:25.261 : ja:100%の晴れ女
00:26:08.066 : ja:空の魚
00:30:07.973 : ja:初訪問
00:34:27.983 : ja:お天気ビジネス
00:38:29.807 : ja:花火大会
00:41:36.494 : ja:似た者同士
00:44:06.060 : ja:天気の巫女
00:47:58.876 : ja:刑事
00:52:11.462 : ja:最後の依頼
00:55:55.852 : ja:告白
00:58:46.940 : ja:追手
01:01:42.532 : ja:逃避行
01:05:18.581 : ja:真夏の雪
01:08:56.132 : ja:最後の夜
01:13:52.928 : ja:あの光へ
01:16:58.697 : ja:快晴
01:19:57.710 : ja:脱走
01:23:15.949 : ja:涙
01:25:48.226 : ja:廃ビルへ
01:28:51.326 : ja:愛にできることはまだ
01:33:02.869 : ja:青空よりも
01:38:33.116 : ja:ふたたびの東京
01:43:29.328 : ja:大丈夫です
01:47:40.829 : ja:エンディングロール

Peing (c/w ANK-Raws & LittleBakas)
https://peing.net/en/knownothing?event=0

Top