你的名字。

字幕组:咪梦动漫组

发布日期:2018/03/17 20:55

文件大小:5.7GB

下载种子 磁力链接

【国粤日三语】你的名字.Your.Name.2016.BluRay.中文特效字幕 [5.7GB]


 

译名: 你的名字。 君の名は。 

导演: 新海诚 

编剧: 新海诚 

主演: 神木隆之介 / 上白石萌音 / 长泽雅美 / 市原悦子 / 成田凌 / 悠木碧 / 岛崎信长 / 石川界人 / 谷花音 / 寺杣昌纪 /大原沙耶香 / 井上和彦 / 茶风林 / 加藤有花 / 花泽香菜 / 寺崎裕香 

类型: 剧情 / 爱情 / 动画 

官方网站: www.kiminona.com 

制片国家/地区: 日本 

语言: 日语/国语/粤语 

上映日期: 2016-12-02(中国大陆) / 2016-08-26(日本) 

片长: 106分钟 

又名: 你的名字 / 君之名 / Your Name / Kimi no na wa. 

IMDb链接: tt5311514 

豆瓣评分: 8.4/10 from 479,482 users 

豆瓣链接: https://movie.douban.com/subject/26683290/ 

 

 

 

★简介 

 

在远离大都会的小山村,住着巫女世家出身的高中女孩宫水三叶(上白石萌音 配音)。校园和家庭的原因本就让她充满烦恼,而近一段时间发生的奇怪事件,又让三叶摸不清头脑。不知从何时起,三叶在梦中就会变成一个住在东京的高中男孩。那里有陌生的同学和朋友,有亲切的前辈和繁华的街道,一切都是如此诱人而真实。另一方面,住在东京的高中男孩立花泷(神木隆之介 配音)则总在梦里来到陌生的小山村,以女孩子的身份过着全新的生活。许是受那颗神秘彗星的影响,立花和三叶在梦中交换了身份。他们以他者的角度体验着对方的人生,这期间有愤怒、有欢笑也有暖心。只是两人并不知道,身份交换的背后隐藏着重大而锥心的秘密…… 

本片为2016年度日本本土影片票房冠军。 

 

 

 

General: 

Complete name                            : 你的名字.Your Name.2016.BluRay.1080P.x264.AC3.3Audio.简体特效-YMDR.mkv

Format                                   : Matroska 

Format version                           : Version 4 / Version 2 

File size                                : 4.49 GiB 

Duration                                 : 1 h 46 min 

Overall bit rate                         : 6 028 kb/s 

Movie name                               : YMDR制作压制

Encoded date                             : UTC 2018-03-16 12:21:04 

Writing application                      : mkvmerge v21.0.0 ('Tardigrades Will Inherit The Earth') 64-bit

Writing library                          : libebml v1.3.5 + libmatroska v1.4.8 

 

VideoID                                       : 1 

Format                                   : AVC 

Format/Info                              : Advanced Video Codec 

Format profile                           : [email protected] 

Format settings                          : CABAC / 4 Ref Frames 

Format settings, CABAC                   : Yes 

Format settings, ReFrames                : 4 frames 

Codec ID                                 : V_MPEG4/ISO/AVC 

Duration                                 : 1 h 46 min 

Bit rate                                 : 5 000 kb/s 

Width                                    : 1 920 pixels 

Height                                   : 1 080 pixels 

Display aspect ratio                     : 16:9 

Frame rate mode                          : Constant 

Frame rate                               : 23.976 (24000/1001) FPS 

Color space                              : YUV 

Chroma subsampling                       : 4:2:0 

Bit depth                                : 8 bits 

Scan type                                : Progressive 

Bits/(Pixel*Frame)                       : 0.101 

Stream size                              : 3.72 GiB (83%) 

Writing library                          : x264 core 155 r2901 7d0ff22 

 

Audio #1 

ID                                       : 2 

Format                                   : AC-3 

Duration                                 : 1 h 46 min 

Bit rate                                 : 640 kb/s 

Channel(s)                               : 6 channels 

Channel positions                        : Front: L C R, Side: L R, LFE 

Sampling rate                            : 48.0 kHz 

Frame rate                               : 31.250 FPS (1536 SPF) 

Bit depth                                : 16 bits 

Compression mode                         : Lossy 

Stream size                              : 488 MiB (11%) 

Title                                    : 日语 

 

Audio #2 

ID                                       : 3 

Format                                   : AC-3 

Duration                                 : 1 h 46 min 

Bit rate                                 : 192 kb/s 

Channel(s)                               : 2 channels 

Channel positions                        : Front: L R 

Sampling rate                            : 48.0 kHz 

Frame rate                               : 31.250 FPS (1536 SPF) 

Bit depth                                : 16 bits 

Compression mode                         : Lossy 

Stream size                              : 146 MiB (3%) 

Title                                    : 国语 

 

Audio #3 

ID                                       : 4 

Format                                   : AC-3 

Duration                                 : 1 h 46 min 

Bit rate                                 : 192 kb/s 

Channel(s)                               : 6 channels 

Channel positions                        : Front: L C R, Side: L R, LFE 

Sampling rate                            : 48.0 kHz 

Frame rate                               : 31.250 FPS (1536 SPF) 

Bit depth                                : 16 bits 

Compression mode                         : Lossy 

Stream size                              : 146 MiB (3%) 

Title                                    : 粤语

 

【发布者描述】

片源转码压制成1080p/2K的!本来想搞个2160p/4K的、因电脑硬件的不足搞不了。 
字幕也是一句一句的对加特效!本来想搞个双语的!但很费时、费精力!所以就直接用中文简体算了!  

 

种子(指定下载软件:Utorrent)

 
Top