字幕组:生肉/不明字幕

发布日期:2016/11/08 22:50

文件大小:5.8GB

Fate/stay night [unlimited blade works] [BDrip 720p][10bit] (ufotable) [5.8GB]


之前收fate就收了ufotable作的系列。

内挂字幕极影加飘雪,字体颜色全改成朴实的白内黑框字,去oped的特效。

 

General

Unique ID : 244123421427932502542402540459963863842 (0xB7A875F369A22125B5C140C7B3565322)
Complete name : D:\Fate/stay night [BDrip 720p][10bit] (ufotable)\Fate/stay night [Unlimited Blade Works] #00 「プロローグ」.mkv
Format : Matroska
Format version : Version 4 / Version 2
File size : 306 MiB
Duration : 50 min 38 s
Overall bit rate : 844 kb/s
Encoded date : UTC 2015-11-13 13:40:25
Writing application : mkvmerge v7.7.0 ('Six Voices') 32bit built on Feb 28 2015 23:23:00
Writing library : libebml v1.3.1 + libmatroska v1.4.2


 

Video

ID : 1
Format : AVC
Format/Info : Advanced Video Codec
Format profile : High [email protected]
Format settings, CABAC : Yes
Format settings, ReFrames : 6 frames
Codec ID : V_MPEG4/ISO/AVC
Duration : 50 min 38 s
Bit rate : 682 kb/s
Width : 1 280 pixels
Height : 720 pixels
Display aspect ratio : 16:9
Frame rate mode : Constant
Frame rate : 23.976 (24000/1001) FPS
Color space : YUV
Chroma subsampling : 4:2:0
Bit depth : 10 bits
Scan type : Progressive
Bits/(Pixel*Frame) : 0.031
Stream size : 247 MiB (81%)
Writing library : x264 core 146 r2538 121396c
Encoding settings : cabac=1 / ref=6 / deblock=1:0:0 / analyse=0x3:0x133 / me=umh / subme=10 / psy=1 / psy_rd=1.00:0.00 / mixed_ref=1 / me_range=32 / chroma_me=1 / trellis=2 / 8x8dct=1 / cqm=0 / deadzone=21,11 / fast_pskip=0 / chroma_qp_offset=-2 / threads=12 / lookahead_threads=1 / sliced_threads=0 / nr=0 / decimate=1 / interlaced=0 / bluray_compat=0 / constrained_intra=0 / bframes=6 / b_pyramid=2 / b_adapt=2 / b_bias=0 / direct=3 / weightb=1 / open_gop=0 / weightp=2 / keyint=240 / keyint_min=23 / scenecut=40 / intra_refresh=0 / rc_lookahead=50 / rc=crf / mbtree=1 / crf=19.5 / qcomp=0.60 / qpmin=0 / qpmax=81 / qpstep=4 / ip_ratio=1.40 / aq=1:1.00
Default : Yes
Forced : No


 

Audio

ID : 2
Format : AAC
Format/Info : Advanced Audio Codec
Format profile : LC
Codec ID : A_AAC
Duration : 50 min 38 s
Bit rate : 159 kb/s
Channel(s) : 2 channels
Channel positions : Front: L R
Sampling rate : 48.0 kHz
Frame rate : 46.875 FPS (1024 spf)
Compression mode : Lossy
Delay relative to video : 20 ms
Stream size : 57.6 MiB (19%)
Default : Yes
Forced : No


 

Text

ID : 3
Format : ASS
Codec ID : S_TEXT/ASS
Codec ID/Info : Advanced Sub Station Alpha
Duration : 49 min 49 s
Bit rate : 87 b/s
Count of elements : 615
Compression mode : Lossless
Stream size : 31.8 KiB (0%)
Default : Yes
Forced : No


 

Top