你的名字。

字幕组:NAZOrip

发布日期:2017/10/06 03:02

文件大小:1.4GB

下载种子 磁力链接

[NAZOrip] Kimi no Na wa. 君の名は. 你的名字. V2 (HEVC.1080P.YUV420P10.AAC) [1.4GB]


 

NAZOrip压制,你的名字V2版本,送给喜爱这部动画电影的广大朋友们。
.
之前的V1版本兼具小体积、完美的瑕疵修复、高细节保留等诸多优点,而若要说唯一的美中不足的话则是锐度偏低,造成在大屏幕上观看时柔顺有余;冲击力不足。
V2版本则着重于修复这个遗憾,NAZOrip使用了神秘黑魔法(并非锐化之流的LowB方案),显著提高了全局锐度。另一方面作为专注高压缩压制组,为了平衡锐度提高带来的体积增长,用了很长时间实验新的冗余信息筛除方案,在平衡缩减体积与保留细节上下了比较大的功夫。作为结果,V2版本获得了在宏观上高于原盘的锐度,同时对锯齿和光环进行修复,极大地优化了在大屏幕上的目视观感。转为大屏定制,相信能给大家带来不一样的震撼。
.
值得一提的是,V1版本仍然是一个非常棒的版本,起码在笔记本以下级别屏幕上,钝化效果的差距在1x放大下并无明显观感区别,反而可能会在某些特殊场景的特殊位置保留更多一些的细节(伴随着更多一些的噪点)。V2与V1版本相同,内挂中日特效字幕@名津流、以及字体包,体积增大约8%,请大家根据自己的需求下载。
.
.
.
MediaInfo

Video
ID                                       : 1
Format                                   : HEVC
Format/Info                              : High Efficiency Video Coding
Format profile                           : Main [email protected]@High
Codec ID                                 : V_MPEGH/ISO/HEVC
Duration                                 : 1 h 46 min
Bit rate                                 : 1 718 kb/s
Width                                    : 1 920 pixels
Height                                   : 1 080 pixels
Display aspect ratio                     : 16:9
Frame rate mode                          : Constant
Frame rate                               : 23.976 (24000/1001) FPS
Color space                              : YUV
Chroma subsampling                       : 4:2:0
Bit depth                                : 10 bits
Bits/(Pixel*Frame)                       : 0.035
Stream size                              : 1.28 GiB (88%)
Title                                    : [email protected]
Language                                 : Japanese
Default                                  : Yes
Forced                                   : No
.
Audio
ID                                       : 2
Format                                   : AAC
Format/Info                              : Advanced Audio Codec
Format profile                           : LC
Codec ID                                 : A_AAC
Duration                                 : 1 h 46 min
Bit rate                                 : 192 kb/s
Channel(s)                               : 2 channels
Channel positions                        : Front: L R
Sampling rate                            : 48.0 kHz
Frame rate                               : 46.875 FPS (1024 spf)
Compression mode                         : Lossy
Stream size                              : 149 MiB (10%)
Language                                 : Japanese
Default                                  : Yes
Forced                                   : No
.
.
.
Source/v1/v2
.
.
.
Mystic Number/谜の番号:55562959
招募一名发布、招募一名文案。不收酱油
 
 
 
Top