名侦探柯南 零的执行人

字幕组:生肉/不明字幕

发布日期:2018/10/14 18:51

文件大小:3.9GB

下载种子 磁力链接

[xyx98]名侦探柯南:零的执行人 / Detective Conan Zero the Enforcer / 剧场版名探侦コナン ゼロの执行人[1920x1080][hevc-yuv420p10 flac] [3.9GB]


 

一场大规模的恐怖袭击,一个牵扯无数内幕的神秘组织,这个关乎整个东京的可怕计划即将拉开帷幕…首脑云集的东京峰会举办在即,会场突然发生超大规模的爆炸事件,不仅在现场发现行踪诡异的安室透,毛利小五郎更是惨遭陷害。面对最危险任务,最烧脑的推理,最艰难的博弈,柯南能否在迷雾中寻找到唯一的真相。


mediainfo:

General

Unique ID                   : 193785300799117409689863403015217136514 (0x91C9B0FCE922A98E9C33910DA2C8C382)

Complete name               : E:\动漫\名侦探柯南 零的执行人\名侦探柯南 零的执行人.mkv

Format                      : Matroska

Format version              : Version 4

File size                   : 2.63 GiB

Duration                    : 1 h 50 min

Overall bit rate mode       : Variable

Overall bit rate            : 3 419 kb/s

Movie name                  : 名侦探柯南 零的执行人

Encoded date                : UTC 2018-10-14 09:43:59

Writing application         : mkvmerge v26.0.0 ('In The Game') 64-bit

Writing library             : libebml v1.3.6 + libmatroska v1.4.9

 

Video

ID                          : 1

Format                      : HEVC

Format/Info                 : High Efficiency Video Coding

Format profile              : Main [email protected]@Main

Codec ID                    : V_MPEGH/ISO/HEVC

Duration                    : 1 h 50 min

Bit rate                    : 2 652 kb/s

Width                       : 1 920 pixels

Height                      : 1 080 pixels

Display aspect ratio        : 16:9

Frame rate mode             : Constant

Frame rate                  : 23.976 (24000/1001) FPS

Color space                 : YUV

Chroma subsampling          : 4:2:0

Bit depth                   : 10 bits

Bits/(Pixel*Frame)          : 0.053

Stream size                 : 2.04 GiB (78%)

Language                    : Japanese

Default                     : Yes

Forced                      : No

 

Audio

ID                          : 2

Format                      : FLAC

Format/Info                 : Free Lossless Audio Codec

Codec ID                    : A_FLAC

Duration                    : 1 h 50 min

Bit rate mode               : Variable

Bit rate                    : 720 kb/s

Channel(s)                  : 2 channels

Channel layout              : L R

Sampling rate               : 48.0 kHz

Frame rate                  : 11.719 FPS (4096 SPF)

Bit depth                   : 16 bits

Compression mode            : Lossless

Stream size                 : 568 MiB (21%)

Writing library             : CUETools 2.1.6

Language                    : Japanese

Default                     : Yes

Forced                      : No

 

Text

ID                          : 3

Format                      : PGS

Muxing mode                 : zlib

Codec ID                    : S_HDMV/PGS

Codec ID/Info               : Picture based subtitle format used on BDs/HD-DVDs

Duration                    : 1 h 49 min

Bit rate                    : 103 kb/s

Count of elements           : 5548

Stream size                 : 81.1 MiB (3%)

Language                    : Japanese

Default                     : No

Forced                      : No

 

Menu

00:00:00.000                : :00:00:00.000

00:04:29.644                : :00:04:29.644

00:09:23.480                : :00:09:23.480

00:16:46.422                : :00:16:46.422

00:26:41.642                : :00:26:41.642

00:33:31.384                : :00:33:31.384

00:39:30.785                : :00:39:30.785

00:42:52.737                : :00:42:52.737

00:48:46.340                : :00:48:46.340

00:55:17.856                : :00:55:17.856

01:05:32.804                : :01:05:32.804

01:10:17.630                : :01:10:17.630

01:16:19.325                : :01:16:19.325

01:23:02.728                : :01:23:02.728

01:29:53.013                : :01:29:53.013

01:40:05.958                : :01:40:05.958

01:43:25.699                : :01:43:25.699

01:48:27.793                : :01:48:27.793

Top