进击的巨人 第二季

字幕组:HoneyGod

发布日期:2017/09/07 00:40

文件大小:14.1GB

下载种子 磁力链接

[HoneyGod] 进击的巨人第二季/Shingeki no Kyojin S2[26-37][x265_10bit][粤日双语][BDrip_1080p] [14.1GB]


 [HoneyGod] 进击的巨人第二季/Shingeki no Kyojin S2[26-37][x265_10bit][粤日双语][BDrip_1080p]

粤语音轨来自J2

还是那句话 做种不太好 下载建议使用μTorrent

推荐播放器:potplayer

粤日动漫Q群517440006

 

 

General

Unique ID                      : 232365488866802318524994306165767531934 (0xAECFF71E3BC1463BBA94987CEDFDED9E)

Complete name                  : D:\[HoneyGod] 进击的巨人第二季 Shingeki no Kyojin S2[26-37][x265_10bit][粤日双语][BDrip_1080p]\[HoneyGod] Shingeki no Kyojin S2 [12][x265_10bit][粤日双语][BDrip_1080p].mkv.mkv

Format                         : Matroska

Format version                 : Version 2

File size                      : 1.13 GiB

Duration                       : 23 min 42 s

Overall bit rate mode          : Variable

Overall bit rate               : 6 839 kb/s

Encoded date                   : UTC 2017-09-06 15:34:23

Writing application            : mkvmerge v10.0.0 ('To Drown In You') 64bit

Writing library                : libebml v1.3.4 + libmatroska v1.4.5


Video

ID                             : 1

Format                         : HEVC

Format/Info                    : High Efficiency Video Coding

Format profile                 : Main [email protected]@Main

Codec ID                       : V_MPEGH/ISO/HEVC

Duration                       : 23 min 42 s

Bit rate                       : 4 048 kb/s

Width                          : 1 920 pixels

Height                         : 1 080 pixels

Display aspect ratio           : 16:9

Frame rate mode                : Constant

Frame rate                     : 23.976 (24000/1001) FPS

Color space                    : YUV

Chroma subsampling             : 4:2:0

Bit depth                      : 10 bits

Bits/(Pixel*Frame)             : 0.081

Stream size                    : 686 MiB (59%)

Writing library                : x265 2.2998d4520d1cf:[Windows][GCC 6.2.0][64 bit] 10bit

Encoding settings              : cpuid=1173503 / frame-threads=3 / numa-pools=8 / wpp / no-pmode / no-pme / no-psnr / no-ssim / log-level=2 / input-csp=1 / input-res=1920x1080 / interlace=0 / total-frames=34095 / level-idc=0 / high-tier=1 / uhd-bd=0 / ref=4 / no-allow-non-conformance / no-repeat-headers / annexb / no-aud / no-hrd / info / hash=0 / no-temporal-layers / open-gop / min-keyint=23 / keyint=250 / bframes=8 / b-adapt=2 / b-pyramid / bframe-bias=0 / rc-lookahead=30 / lookahead-slices=4 / scenecut=40 / no-intra-refresh / ctu=64 / min-cu-size=8 / rect / amp / max-tu-size=32 / tu-inter-depth=2 / tu-intra-depth=2 / limit-tu=0 / rdoq-level=2 / signhide / no-tskip / nr-intra=0 / nr-inter=0 / no-constrained-intra / strong-intra-smoothing / max-merge=3 / limit-refs=2 / limit-modes / me=3 / subme=3 / merange=57 / temporal-mvp / weightp / weightb / no-analyze-src-pics / deblock=0:0 / sao / no-sao-non-deblock / rd=6 / no-early-skip / rskip / no-fast-intra / no-tskip-fast / no-cu-lossless / b-intra / rdpenalty=0 / psy-rd=2.00 / psy-rdoq=1.00 / no-rd-refine / analysis-mode=0 / no-lossless / cbqpoffs=0 / crqpoffs=0 / rc=crf / crf=18.0 / qcomp=0.60 / qpstep=4 / stats-write=0 / stats-read=0 / ipratio=1.40 / pbratio=1.30 / aq-mode=1 / aq-strength=1.00 / cutree / zone-count=0 / no-strict-cbr / qg-size=32 / no-rc-grain / qpmax=69 / qpmin=0 / sar=1 / overscan=0 / videoformat=5 / range=0 / colorprim=2 / transfer=2 / colormatrix=2 / chromaloc=0 / display-window=0 / max-cll=0,0 / min-luma=0 / max-luma=1023 / log2-max-poc-lsb=8 / vui-timing-info / vui-hrd-info / slices=1 / opt-qp-pps / opt-ref-list-length-pps / no-multi-pass-opt-rps / scenecut-bias=0.05

Default                        : Yes

Forced                         : No


Audio #1

ID                             : 2

Format                         : FLAC

Format/Info                    : Free Lossless Audio Codec

Codec ID                       : A_FLAC

Duration                       : 23 min 42 s

Bit rate mode                  : Variable

Bit rate                       : 1 369 kb/s

Channel(s)                     : 2 channels

Channel positions              : Front: L R

Sampling rate                  : 48.0 kHz

Frame rate                     : 11.719 FPS (4096 SPF)

Bit depth                      : 24 bits

Stream size                    : 232 MiB (20%)

Title                          : J2粤语

Writing library                : libFLAC 1.3.1 (UTC 2014-11-25)

Language                       : Chinese

Default                        : Yes

Forced                         : No


Audio #2

ID                             : 3

Format                         : FLAC

Format/Info                    : Free Lossless Audio Codec

Codec ID                       : A_FLAC

Duration                       : 23 min 42 s

Bit rate mode                  : Variable

Bit rate                       : 1 419 kb/s

Channel(s)                     : 2 channels

Channel positions              : Front: L R

Sampling rate                  : 48.0 kHz

Frame rate                     : 11.719 FPS (4096 SPF)

Bit depth                      : 24 bits

Stream size                    : 241 MiB (21%)

Title                          : 日语

Writing library                : libFLAC 1.2.1 (UTC 2007-09-17)

Language                       : Japanese

Default                        : No

Forced                         : No

Top