名侦探柯南 殷红的恋歌

字幕组:银色子弹字幕组

发布日期:2017/10/16 10:34

文件大小:1.7GB

下载种子 磁力链接

[银色子弹字幕组][名侦探柯南][剧场版21 唐红的恋歌][V2][繁日双语MP4][BDRIP][1080P] [1.7GB]


 

海报
 
下載建議:迅雷有可能因為檢舉等原因無法下載種子,建議使用標準bt下載軟體下載。如果遇到老舊資源下載沒有速度,可以將種子使用度盤離線,可能可以秒傳。如果有老舊資源經過努力也找不到資源,可以聯絡我們進行補種,加入下面的討論群即可聯絡我們。
我們是長期翻譯柯南的字幕組,意在譯製高品質的雙語字幕。誠邀各位加盟
QQ討論群 : 463690373
QQ招新群 : 372844675
主頁:https://www.sbsub.com/
微博、微信公眾號、釋出站、論壇等請前往主頁進行導航
 
發佈後我們發現繁體版有一些bug,比如標題出現了兩次,後半部分的註釋對應錯誤,我們已經修正並在這裏發佈v2版本.
簡體沒有這些問題,可以放心食用.
 
正在錄製"皋月杯"百人一首記者會的大阪地標·日賣電視臺突然發生爆炸,千鈞一髮之際,急忙趕來的柯南救出了被困在崩塌大樓中的平次與和葉,而另一側,"皋月杯"冠軍在京都屋內遭人殺害,監控器裡所顯示出的是——紅葉...原作中的重要角色,百人一首高中生冠軍,自稱"平次未婚妻"的大岡紅葉,將首次在劇場版中登場,新一和小蘭的關係也將發生變化....
 
 
 
Video
ID                             : 1
Format                         : AVC
Format/Info                    : Advanced Video Codec
Format profile                 : [email protected]
Format settings, CABAC         : Yes
Format settings, RefFrames     : 4 frames
Codec ID                       : avc1
Codec ID/Info                  : Advanced Video Coding
Duration                       : 1 h 52 min
Bit rate                       : 1 738 kb/s
Maximum bit rate               : 25.6 Mb/s
Width                          : 1 920 pixels
Height                         : 1 080 pixels
Display aspect ratio           : 16:9
Frame rate mode                : Constant
Frame rate                     : 23.976 (24000/1001) FPS
Color space                    : YUV
Chroma subsampling             : 4:2:0
Bit depth                      : 8 bits
Scan type                      : Progressive
Bits/(Pixel*Frame)             : 0.035
Stream size                    : 1.37 GiB (82%)
 
 
Audio
ID                             : 2
Format                         : AAC
Format/Info                    : Advanced Audio Codec
Format profile                 : LC
Codec ID                       : 40
Duration                       : 1 h 52 min
Bit rate mode                  : Variable
Bit rate                       : 365 kb/s
Maximum bit rate               : 452 kb/s
Channel(s)                     : 6 channels
Channel positions              : Front: L C R, Side: L R, LFE
Sampling rate                  : 48.0 kHz
Frame rate                     : 46.875 FPS (1024 SPF)
Compression mode               : Lossy
Stream size                    : 294 MiB (17%)
 
Top