刀剑神域外传 Gun Gale Online

字幕组:生肉/不明字幕

发布日期:2018/06/17 18:34

文件大小:772.9MB

下载种子 磁力链接

[刀剑神域外传 Sword Art Online Alternative: Gun Gale Online - 10][1080p][简英多字幕][AAC128kbps] [772.9MB]


来自Erai-raws的源,补充手打内挂中文字幕。音质比国内网源高一些,国内网源的64kbps音频实在刺耳。

 

General
Format                         : Matroska
Format version                 : Version 4 / Version 2
File size                      : 773 MiB
Duration                       : 23 min 41 s
Overall bit rate               : 4 560 kb/s
Encoded date                   : UTC 2018-06-17 09:49:34
Writing application            : mkvmerge v24.0.0 ('Beyond The Pale') 64-bit
Writing library                : libebml v1.3.6 + libmatroska v1.4.9

Video
ID                             : 1
Format                         : AVC
Format/Info                    : Advanced Video Codec
Format profile                 : [email protected]
Format settings                : CABAC / 4 Ref Frames
Format settings, CABAC         : Yes
Format settings, ReFrames      : 4 frames
Codec ID                       : V_MPEG4/ISO/AVC
Duration                       : 23 min 40 s
Bit rate                       : 4 435 kb/s
Width                          : 1 920 pixels
Height                         : 1 080 pixels
Display aspect ratio           : 16:9
Frame rate mode                : Constant
Frame rate                     : 23.976 (24000/1001) FPS
Color space                    : YUV
Chroma subsampling             : 4:2:0
Bit depth                      : 8 bits
Scan type                      : Progressive
Bits/(Pixel*Frame)             : 0.089
Stream size                    : 751 MiB (97%)
Writing library                : x264 core 142

Audio
ID                             : 2
Format                         : AAC
Format/Info                    : Advanced Audio Codec
Format profile                 : LC
Codec ID                       : A_AAC-2
Duration                       : 23 min 40 s
Bit rate                       : 128 kb/s
Channel(s)                     : 2 channels
Channel positions              : Front: L R
Sampling rate                  : 44.1 kHz
Frame rate                     : 43.066 FPS (1024 SPF)
Compression mode               : Lossy
Delay relative to video        : -83 ms
Stream size                    : 21.7 MiB (3%)
Default                        : Yes
Forced                         : No

Text #1
ID                             : 3
Format                         : ASS
Codec ID                       : S_TEXT/ASS
Codec ID/Info                  : Advanced Sub Station Alpha
Duration                       : 23 min 38 s
Bit rate                       : 90 b/s
Count of elements              : 335
Compression mode               : Lossless
Stream size                    : 15.7 KiB (0%)
Title                          : Chinese(SC)
Language                       : Chinese
Default                        : Yes
Forced                         : No

Text #2
ID                             : 4
Format                         : ASS
Codec ID                       : S_TEXT/ASS
Codec ID/Info                  : Advanced Sub Station Alpha
Duration                       : 23 min 38 s
Bit rate                       : 109 b/s
Count of elements              : 308
Compression mode               : Lossless
Stream size                    : 19.0 KiB (0%)
Title                          : English(US)
Language                       : English
Default                        : No
Forced                         : No

Text #3
ID                             : 5
Format                         : ASS
Codec ID                       : S_TEXT/ASS
Codec ID/Info                  : Advanced Sub Station Alpha
Duration                       : 23 min 41 s
Bit rate                       : 99 b/s
Count of elements              : 296
Compression mode               : Lossless
Stream size                    : 17.2 KiB (0%)
Title                          : Espanol
Language                       : Spanish
Default                        : No
Forced                         : No

Text #4
ID                             : 6
Format                         : ASS
Codec ID                       : S_TEXT/ASS
Codec ID/Info                  : Advanced Sub Station Alpha
Duration                       : 23 min 38 s
Bit rate                       : 116 b/s
Count of elements              : 310
Compression mode               : Lossless
Stream size                    : 20.1 KiB (0%)
Title                          : Portugues(Brasil)
Language                       : Portuguese
Default                        : No
Forced                         : No

 

Top