RWBY Volume 1-3: The Beginning

字幕组:生肉/不明字幕

发布日期:2016/12/15 20:56

文件大小:8.5GB

下载种子 磁力链接

RWBY Season 1,2 &3 [BDrip 720p x264 AAC][10bit] [8.5GB]


此片越往后看越糟心,第四季不会再压,前三季出种后会删档,喜欢的同学请自留档。

此话:RWBY #20 Mountain Glenn 9:04秒左右有花屏,网上放流的原盘就这状况,所以无法修正。

字幕简体,简英,感谢原字幕组。

General

Complete name : D:\Animation\RWBY [BDrip 720p x264 AAC][10bit]\RWBY #01 Ruby Rose.mp4
Format : MPEG-4
Format profile : Base Media
Codec ID : isom (isom/avc1/iso6)
File size : 180 MiB
Duration : 12 min 20 s
Overall bit rate mode : Variable
Overall bit rate : 2 044 kb/s
Encoded date : UTC 2016-08-16 00:33:35
Tagged date : UTC 2016-08-16 00:33:35

Video

ID : 1
Format : AVC
Format/Info : Advanced Video Codec
Format profile : High [email protected]
Format settings, CABAC : Yes
Format settings, ReFrames : 6 frames
Codec ID : avc1
Codec ID/Info : Advanced Video Coding
Duration : 12 min 20 s
Bit rate : 1 830 kb/s
Maximum bit rate : 17.7 Mb/s
Width : 1 280 pixels
Height : 720 pixels
Display aspect ratio : 16:9
Frame rate mode : Constant
Frame rate : 29.970 (30000/1001) FPS
Color space : YUV
Chroma subsampling : 4:2:0
Bit depth : 10 bits
Scan type : Progressive
Bits/(Pixel*Frame) : 0.066
Stream size : 161 MiB (89%)
Writing library : x264 core 148 r2638 7599210
Encoding settings : cabac=1 / ref=6 / deblock=1:0:0 / analyse=0x3:0x133 / me=umh / subme=10 / psy=1 / psy_rd=0.60:0.00 / mixed_ref=1 / me_range=32 / chroma_me=1 / trellis=2 / 8x8dct=1 / cqm=0 / deadzone=21,11 / fast_pskip=0 / chroma_qp_offset=-2 / threads=12 / lookahead_threads=1 / sliced_threads=0 / nr=0 / decimate=1 / interlaced=0 / bluray_compat=0 / constrained_intra=0 / bframes=6 / b_pyramid=2 / b_adapt=2 / b_bias=0 / direct=3 / weightb=1 / open_gop=0 / weightp=2 / keyint=300 / keyint_min=29 / scenecut=40 / intra_refresh=0 / rc_lookahead=40 / rc=crf / mbtree=1 / crf=19.0 / qcomp=0.60 / qpmin=0 / qpmax=81 / qpstep=4 / ip_ratio=1.40 / aq=1:1.00
Encoded date : UTC 2016-08-16 00:33:35
Tagged date : UTC 2016-08-16 00:33:36

Audio

ID : 2
Format : AAC
Format/Info : Advanced Audio Codec
Format profile : HE-AAC / LC
Codec ID : 40
Duration : 12 min 20 s
Bit rate mode : Variable
Bit rate : 211 kb/s
Maximum bit rate : 315 kb/s
Channel(s) : 6 channels
Channel positions : Front: L C R, Side: L R, LFE
Sampling rate : 48.0 kHz / 24.0 kHz
Frame rate : 23.438 FPS (1024 spf)
Compression mode : Lossy
Stream size : 18.6 MiB (10%)
Language : English
Encoded date : UTC 2016-08-16 00:06:26
Tagged date : UTC 2016-08-16 00:33:36

 
Top