哥斯拉 怪兽行星

字幕组:小愿8压制组

发布日期:2018/01/20 11:33

文件大小:1.3GB

下载种子 磁力链接

[EX8][哥斯拉:怪兽行星][2017][1080p][WEB][简体][x264] [1.3GB]


 General

Complete name                  :[EX8][哥斯拉:怪兽行星][2017][1080p][WEB][简体][x264]
Format                         : MPEG-4
Format profile                 : Base Media
Codec ID                       : isom (isom)
File size                      : 1.29 GiB
Duration                       : 1 h 28 min
Overall bit rate mode          : Variable
Overall bit rate               : 2 085 kb/s
Encoded date                   : UTC 2018-01-20 03:02:04
Tagged date                    : UTC 2018-01-20 03:02:04
 
Video
ID                             : 1
Format                         : AVC
Format/Info                    : Advanced Video Codec
Format profile                 : [email protected]
Format settings                : CABAC / 4 Ref Frames
Format settings, CABAC         : Yes
Format settings, ReFrames      : 4 frames
Codec ID                       : avc1
Codec ID/Info                  : Advanced Video Coding
Duration                       : 1 h 28 min
Bit rate                       : 1 956 kb/s
Maximum bit rate               : 14.3 Mb/s
Width                          : 1 920 pixels
Height                         : 1 080 pixels
Display aspect ratio           : 16:9
Frame rate mode                : Variable
Frame rate                     : 24.000 FPS
Minimum frame rate             : 23.810 FPS
Maximum frame rate             : 24.390 FPS
Color space                    : YUV
Chroma subsampling             : 4:2:0
Bit depth                      : 8 bits
Scan type                      : Progressive
Bits/(Pixel*Frame)             : 0.039
Stream size                    : 1.21 GiB (94%)
Writing library                : x264 core 148 r2721+46 0c4b09a       EX8[ex8zz.xin]      
Encoding settings              : cabac=1 / ref=4 / deblock=1:1:1 / analyse=0x3:0x133 / me=umh / subme=10 / psy=1 / fade_compensate=0.00 / psy_rd=0.30:0.00 / mixed_ref=1 / me_range=24 / chroma_me=1 / trellis=2 / 8x8dct=1 / cqm=0 / deadzone=21,11 / fast_pskip=1 / chroma_qp_offset=-2 / threads=16 / lookahead_threads=1 / sliced_threads=0 / nr=0 / decimate=1 / interlaced=0 / bluray_compat=0 / constrained_intra=0 / fgo=0 / bframes=3 / b_pyramid=2 / b_adapt=2 / b_bias=0 / direct=3 / weightb=1 / open_gop=0 / weightp=2 / keyint=240 / keyint_min=1 / scenecut=60 / intra_refresh=0 / rc_lookahead=60 / rc=crf / mbtree=1 / crf=21.0000 / qcomp=0.50 / qpmin=0:0:0 / qpmax=69:69:69 / qpstep=4 / ip_ratio=1.40 / aq=2:0.80 / aq-sensitivity=10.00 / aq-factor=1.00:1.00:1.00 / aq2=0 / aq3=0
Encoded date                   : UTC 
Tagged date                    : UTC 
Color range                    : Limited
Matrix coefficients            : BT.709
 
Audio
ID                             : 2
Format                         : AAC
Format/Info                    : Advanced Audio Codec
Format profile                 : LC
Codec ID                       : mp4a-40-2
Duration                       : 1 h 28 min
Bit rate mode                  : Variable
Bit rate                       : 124 kb/s
Maximum bit rate               : 207 kb/s
Channel(s)                     : 2 channels
Channel(s)_Original            : 6 channels
Channel positions              : Front: L C R, Side: L R, LFE
Sampling rate                  : 48.0 kHz
Frame rate                     : 46.875 FPS (1024 SPF)
Compression mode               : Lossy
Stream size                    : 78.8 MiB (6%)
Encoded date                   : UTC 
Tagged date                    : UTC 
 
Top