昭和元禄落语心中 -助六再临篇-

字幕组:生肉/不明字幕

发布日期:2017/01/13 21:00

文件大小:2.8GB

下载种子 磁力链接

[DDD] 昭和元禄落语心中 [BDrip 720p x264 AAC][10bit](附ost、op的AAC版本) [2.8GB]


正好看到雪飘字幕组发布了外挂和资料集,所以赶紧就把手头的raw发了吧。

这是一部非常值得回味的佳作,请耐下心来专注观看。(二季与太再临篇播放中)

忘掉了还有ost和女神演唱的op,ost其之一disc2里有一段很全的落语,有兴趣的可以听听玩。

之前种子里下载了一部分的,请麻烦删除旧种子后导入新种子将已下载部分重新检查一遍便可。

General

Complete name : D:\[DDD] 昭和元禄落語心中 [BDrip 720p x264 AAC][10bit]\昭和元禄落語心中 第01話 「与太郎放浪篇」.mp4
Format : MPEG-4
Format profile : Base Media
Codec ID : isom (isom/avc1/iso6)
File size : 481 MiB
Duration : 1 h 22 min
Overall bit rate mode : Variable
Overall bit rate : 819 kb/s
Encoded date : UTC 2016-11-22 15:50:20
Tagged date : UTC 2016-11-22 15:50:20

Video

ID : 1
Format : AVC
Format/Info : Advanced Video Codec
Format profile : High [email protected]
Format settings, CABAC : Yes
Format settings, ReFrames : 6 frames
Codec ID : avc1
Codec ID/Info : Advanced Video Coding
Duration : 1 h 22 min
Bit rate : 641 kb/s
Maximum bit rate : 6 152 kb/s
Width : 1 280 pixels
Height : 720 pixels
Display aspect ratio : 16:9
Frame rate mode : Constant
Frame rate : 23.976 (24000/1001) FPS
Color space : YUV
Chroma subsampling : 4:2:0
Bit depth : 10 bits
Scan type : Progressive
Bits/(Pixel*Frame) : 0.029
Stream size : 376 MiB (78%)
Writing library : x264 core 148 r2638 7599210
Encoding settings : cabac=1 / ref=6 / deblock=1:-1:-1 / analyse=0x3:0x133 / me=umh / subme=10 / psy=1 / psy_rd=0.00:0.00 / mixed_ref=1 / me_range=32 / chroma_me=1 / trellis=2 / 8x8dct=1 / cqm=0 / deadzone=21,11 / fast_pskip=0 / chroma_qp_offset=0 / threads=12 / lookahead_threads=1 / sliced_threads=0 / nr=0 / decimate=1 / interlaced=0 / bluray_compat=0 / constrained_intra=0 / bframes=6 / b_pyramid=2 / b_adapt=2 / b_bias=0 / direct=3 / weightb=1 / open_gop=0 / weightp=2 / keyint=240 / keyint_min=23 / scenecut=40 / intra_refresh=0 / rc_lookahead=40 / rc=crf / mbtree=1 / crf=17.0 / qcomp=0.60 / qpmin=0 / qpmax=81 / qpstep=4 / ip_ratio=1.40 / aq=1:1.00
Encoded date : UTC 2016-11-22 15:50:20
Tagged date : UTC 2016-11-22 15:50:48

Audio

ID : 2
Format : AAC
Format/Info : Advanced Audio Codec
Format profile : LC
Codec ID : 40
Duration : 1 h 22 min
Bit rate mode : Variable
Bit rate : 174 kb/s
Maximum bit rate : 304 kb/s
Channel(s) : 2 channels
Channel positions : Front: L R
Sampling rate : 48.0 kHz
Frame rate : 46.875 FPS (1024 spf)
Compression mode : Lossy
Stream size : 102 MiB (21%)
Encoded date : UTC 2016-11-22 15:41:58
Tagged date : UTC 2016-11-22 15:50:48

 

Top